Skip to main content

Camper Van Beethoven Live at Highline Ballroom on 2011-01-14




01. Opening Theme
02. Jack Ruby
03. Sweethearts
04. When I Win The Lottery
05. (I Was Born In A) Laundromat
06. Borderline
07. The Light From A Cake
08. June
09. All Her Favorite Fruit
10. Interlude
11. Flowers
12. The Humid Press of Days
13. Pictures of Matchstick Men
14. Come On Darkness
15. Eye Of Fatima
16. Take The Skinheads Bowling


Collection CamperVanBeethoven
Band/Artist Camper Van Beethoven
Venue Highline Ballroom
Location New York City

Source AKG CB568D Hybrid Shotguns (48v) > Monster Studio Grade Cables > Zoom H4
Lineage WAV > Cubase 4 > WAV @ 44.1hz / 16 bit 20hz - 20khz
Taped by Barry Shoop
Transferred by Barry Shoop

Notes

Track 1-14 is the debut performance of CVB's 1989 Key Lime Pie album, in its entirety.
After the CVB set, Cracker played their entire Kerosene Hat album in order, for the third time ever (Racine, WI & Pioneertown, CA, 2007 were the first two)
http://www.archive.org/details/Cracker2011-01-14

Transfer:
Mixed and Mastered on a Sony VIOS utilizing a Sound Blaster 4 soundcard
WAV > Cubase 4 > WAV @ 44.1hz / 16 bit 20hz - 20khz. Enjoy!

Recording & Transfer by:
Barry Shoop

LMA prep by morst:
WAV > Audacity v1.3.12 (amplify +6dB) > WAV > xACT 2.06 (SBE alignment, FLAC encode, file naming & tagging) > FLAC level 8

SHNTOOL:
length expanded size cdr WAVE problems fmt ratio filename
2:21.45 24978284 B --- -- ---xx flac 0.4472 CVB2011-01-14t01.flac
5:33.43 58842380 B --- -- ---xx flac 0.5045 CVB2011-01-14t02.flac
4:50.69 51318332 B --- -- ---xx flac 0.5097 CVB2011-01-14t03.flac
3:46.48 39979340 B --- -- ---xx flac 0.5025 CVB2011-01-14t04.flac
3:47.04 40052252 B --- -- ---xx flac 0.5444 CVB2011-01-14t05.flac
4:00.17 42376028 B --- -- ---xx flac 0.5050 CVB2011-01-14t06.flac
2:44.72 29098988 B --- -- ---xx flac 0.4888 CVB2011-01-14t07.flac
4:30.02 47632748 B --- -- ---xx flac 0.5063 CVB2011-01-14t08.flac
5:20.42 56546828 B --- -- ---xx flac 0.4785 CVB2011-01-14t09.flac
1:03.70 11277884 B --- -- ---xx flac 0.2538 CVB2011-01-14t10.flac
3:25.63 36310220 B --- -- ---xx flac 0.4295 CVB2011-01-14t11.flac
2:51.60 30305564 B --- -- ---xx flac 0.4811 CVB2011-01-14t12.flac
4:26.47 47032988 B --- -- ---xx flac 0.5396 CVB2011-01-14t13.flac
3:53.58 41237660 B --- -- ---xx flac 0.4602 CVB2011-01-14t14.flac
5:20.30 56518604 B --- -- ---xx flac 0.5413 CVB2011-01-14t15.flac
3:09.53 33464300 B --- -- ---xx flac 0.5349 CVB2011-01-14t16.flac
61:07.48 646972400 B 0.4971 (16 files)

Reviews

Reviewer: iamjmb2 - - January 17, 2011
Subject: Beautiful, reverential recording
First, I had to look up "reverential" to make sure it was a word. It was the best adjective I could come up with to describe this terrific recording of what undoubtedly was a terrific show to have seen in person. As I was not so fortunate, I have been settling for playing it on my work and home computers and my home stereo. Sounds great everywhere! Plus, it is great to have a record of the first public performance of the entire "Key Lime Pie" album.
PEOPLE ALSO FOUND
Camper Van Beethoven
by Camper Van Beethoven
411
0
0
Camper Van Beethoven
by Camper Van Beethoven
2,679
0
1
( 1 reviews )
Source: Sony ECM-717 > Sharp Minidisc MD-MT190
Camper Van Beethoven
by Camper Van Beethoven
153
0
0
Source: soundboard > Sony D5 > TDK MA90 cassette master tape
Camper Van Beethoven
by Camper Van Beethoven
9,949
0
1
( 1 reviews )
Source: Sony ECM-717 > Sharp MD-MT190MD
Camper Van Beethoven
by Camper Van Beethoven
1,883
2
0
Source: B&K 4011-> Lunatec V2-> Benchmark AD2K+ FOB
Camper Van Beethoven
by Camper Van Beethoven
1,559
1
0
Source: DPA 4061 > Sony PCM-D50 > WAV @48/24
Camper Van Beethoven
by Camper Van Beethoven
1,727
1
1
( 1 reviews )
Source: Nakamichi CM-301 (ortf on stage with Leegeddy "active" mod) > pmod UA5> JB3
Camper Van Beethoven
by Camper Van Beethoven
1,683
1
0
Source: AKG C480b (CK63) > Edirol UA-5 (BM2) > Nomad Jukebox 3
Camper Van Beethoven
by Camper Van Beethoven
13,255
1
2
( 2 reviews )
Source: Sony ECM-717 > Sharp Minidisc MD-MT19
Camper Van Beethoven
by Camper Van Beethoven
1,009
1
0
Source: SBD > ? > CD